<?xml version="1.0" standalone="no"?>
<!DOCTYPE svg PUBLIC "-//W3C//DTD SVG 1.1//EN" "http://www.w3.org/Graphics/SVG/1.1/DTD/svg11.dtd" >
<svg xmlns="http://www.w3.org/2000/svg">
<metadata>
<json>
<![CDATA[
{
	"fontFamily": "ea-dash-icon",
	"majorVersion": 1,
	"minorVersion": 0,
	"version": "Version 1.0",
	"fontId": "ea-dash-icon",
	"psName": "ea-dash-icon",
	"subFamily": "Regular",
	"fullName": "ea-dash-icon",
	"description": "Font generated by IcoMoon."
}
]]>
</json>
</metadata>
<defs>
<font id="ea-dash-icon" horiz-adv-x="1024">
<font-face units-per-em="1024" ascent="960" descent="-64" />
<missing-glyph horiz-adv-x="1024" />
<glyph unicode="&#x20;" horiz-adv-x="512" d="" />
<glyph unicode="&#xe900;" glyph-name="docs-fill" data-tags="Doc" d="M660.992 699.392c-33.792 33.792-33.792 77.824-33.792 158.208v102.4c0 0-2.56 0-4.096 0h-213.504c-144.896 0-217.088 0-262.144-45.056s-45.056-117.248-45.056-262.144v-409.6c0-144.896 0-217.088 45.056-262.144s117.248-45.056 262.144-45.056h204.8c144.896 0 217.088 0 262.144 45.056s45.056 117.248 45.056 262.144v418.305c0 0 0 2.56 0 4.096h-102.4c-80.384 0-124.416 0-158.208 33.792zM520.704 131.584h-213.504c-20.992 0-38.4 17.408-38.4 38.4s17.408 38.4 38.4 38.4h213.504c20.992 0 38.4-17.408 38.4-38.4s-17.408-38.4-38.4-38.4zM716.8 298.496h-409.6c-20.992 0-38.4 17.408-38.4 38.4s17.408 38.4 38.4 38.4h409.6c20.992 0 38.4-17.408 38.4-38.4s-17.408-38.4-38.4-38.4zM716.8 465.408h-409.6c-20.992 0-38.4 17.408-38.4 38.4s17.408 38.4 38.4 38.4h409.6c20.992 0 38.4-17.408 38.4-38.4s-17.408-38.4-38.4-38.4zM715.264 753.664c11.264-11.264 48.128-11.264 103.936-11.264h64l-179.2 179.2v-64c0-55.808 0-92.672 11.264-103.936z" />
<glyph unicode="&#xe901;" glyph-name="crown-1" data-tags="crown-1" d="M62.713 278.109c-20.764 134.961-41.526 269.921-62.29 404.883-4.605 29.917 29.436 50.322 53.651 32.16 64.689-48.516 129.375-97.030 194.064-145.547 21.299-15.975 51.644-10.775 66.409 11.377l161.563 242.346c17.073 25.609 54.702 25.609 71.776 0l161.565-242.346c14.764-22.153 45.111-27.349 66.409-11.377 64.687 48.517 129.373 97.030 194.064 145.547 24.212 18.162 58.254-2.242 53.654-32.16-20.765-134.963-41.531-269.922-62.288-404.883h-898.576zM914.304 53.467h-804.878c-25.873 0-46.848 20.972-46.848 46.846v102.916h898.573v-102.916c0-25.874-20.977-46.846-46.846-46.846z" />
<glyph unicode="&#xe902;" glyph-name="notes-2" data-tags="notes-2" d="M49.256 308.895l26.505-98.92c30.939-115.464 46.41-173.201 81.48-210.646 27.692-29.565 63.529-50.256 102.978-59.452 49.963-11.649 107.698 3.82 223.168 34.762 115.464 30.937 173.201 46.406 210.646 81.475 3.108 2.914 6.113 5.914 9.027 9.002-17.112 1.434-34.373 4.188-51.916 7.676-35.642 7.086-77.993 18.438-128.080 31.859l-6.738 1.803c-54.496 14.604-100.031 26.83-136.387 39.964-38.233 13.809-72.973 30.835-102.473 58.464-40.653 38.075-69.102 87.353-81.75 141.598-9.178 39.36-6.554 77.962 0.601 117.978 6.857 38.346 19.173 84.301 33.928 139.364v0.001l28.326 105.711c-98.338-26.491-150.1-42.164-184.618-74.494-29.566-27.691-50.256-63.528-59.455-102.978-11.65-49.964 3.82-107.697 34.759-223.165zM974.746 513.741c30.937 115.467 46.406 173.201 34.757 223.164-9.196 39.45-29.888 75.287-59.452 102.978-37.445 35.070-95.182 50.54-210.646 81.48-115.47 30.939-173.207 46.41-223.165 34.759-39.453-9.199-75.29-29.888-102.98-59.455-30.027-32.059-45.685-78.992-68.987-164.299-3.913-14.327-8.044-29.745-12.493-46.347l-26.505-98.918c-30.939-115.467-46.41-173.2-34.759-223.164 9.199-39.453 29.888-75.29 59.455-102.98 37.444-35.069 95.179-50.538 210.648-81.48 104.076-27.885 161.246-43.205 208.102-37.425 5.13 0.63 10.134 1.516 15.065 2.668 39.447 9.196 75.285 29.888 102.976 59.452 35.069 37.445 50.543 95.177 81.48 210.646l26.509 98.92zM474.133 560.31c5.489 20.487 26.549 32.645 47.036 27.154l247.293-66.265c20.487-5.489 32.642-26.543 27.153-47.030s-26.543-32.642-47.030-27.153l-247.298 66.263c-20.487 5.489-32.642 26.543-27.153 47.031zM434.359 411.953c5.489 20.487 26.543 32.642 47.030 27.153l148.377-39.76c20.487-5.489 32.642-26.543 27.153-47.030s-26.543-32.647-47.030-27.158l-148.377 39.76c-20.487 5.489-32.647 26.549-27.153 47.036z" />
<glyph unicode="&#xe903;" glyph-name="cart" data-tags="cart" d="M657.52 955.667c20.234 10.117 44.837 1.915 54.951-18.318l120.214-240.423c73.896-5.677 120.269-20.171 150.192-57.184 49.179-60.837 29.561-152.392-9.678-335.497l-23.402-109.226c-26.597-124.108-39.895-186.165-84.956-222.592s-108.522-36.427-235.453-36.427h-234.78c-126.928 0-190.392 0-235.452 36.427s-58.357 98.484-84.952 222.592l-23.406 109.226c-39.237 183.107-58.855 274.661-9.674 335.497 29.92 37.011 76.291 51.506 150.187 57.182l120.212 240.425c10.117 20.233 34.72 28.434 54.953 18.318s28.434-34.72 18.318-54.953l-100.211-200.422c26.39 0.288 55.186 0.288 86.62 0.288h281.592c31.435 0 60.227 0 86.616-0.288l-100.209 200.422c-10.12 20.233-1.917 44.837 18.317 54.953zM252.586 427.517c0 22.621 18.338 40.96 40.96 40.96h436.903c22.621 0 40.96-18.338 40.96-40.96s-18.338-40.96-40.96-40.96h-436.903c-22.621 0-40.96 18.338-40.96 40.96zM402.772 304.638c-22.621 0-40.96-18.338-40.96-40.96s18.338-40.96 40.96-40.96h218.452c22.621 0 40.96 18.338 40.96 40.96s-18.338 40.96-40.96 40.96h-218.452z" />
<glyph unicode="&#xe904;" glyph-name="check" data-tags="check" d="M1006.359 791.77c23.521-23.524 23.521-61.662 0-85.186l-602.355-602.354c-23.521-23.521-61.662-23.521-85.186 0l-301.176 301.176c-23.523 23.521-23.523 61.663 0 85.185s61.662 23.521 85.186 0l258.583-258.585 559.762 559.762c23.521 23.523 61.663 23.523 85.185 0z" />
<glyph unicode="&#xe905;" glyph-name="community" data-tags="Community" d="M147.324 917.703c27.082 27.082 63.813 42.297 102.113 42.297s75.031-15.215 102.113-42.297c27.082-27.082 42.297-63.813 42.297-102.113s-15.215-75.031-42.297-102.113c-27.082-27.082-63.813-42.297-102.113-42.297s-75.031 15.215-102.113 42.297c-27.082 27.082-42.297 63.813-42.297 102.113s15.215 75.031 42.297 102.113zM249.437 881.231c-17.409 0-34.105-6.916-46.415-19.226s-19.226-29.006-19.226-46.415c0-17.409 6.916-34.105 19.226-46.415s29.006-19.226 46.415-19.226c17.409 0 34.105 6.916 46.415 19.226s19.226 29.006 19.226 46.415c0 17.409-6.916 34.105-19.226 46.415s-29.006 19.226-46.415 19.226zM672.454 917.703c27.081 27.082 63.814 42.297 102.111 42.297s75.030-15.215 102.111-42.297c27.086-27.082 42.299-63.813 42.299-102.113s-15.214-75.031-42.299-102.113c-27.081-27.082-63.814-42.297-102.111-42.297s-75.030 15.215-102.111 42.297c-27.086 27.082-42.299 63.813-42.299 102.113s15.214 75.031 42.299 102.113zM774.565 881.231c-17.408 0-34.107-6.916-46.416-19.226s-19.225-29.006-19.225-46.415c0-17.409 6.916-34.105 19.225-46.415s29.008-19.226 46.416-19.226c17.408 0 34.107 6.916 46.416 19.226s19.225 29.006 19.225 46.415c0 17.409-6.916 34.105-19.225 46.415s-29.008 19.226-46.416 19.226zM144.411 513.641c-17.409 0-34.105-6.916-46.415-19.225s-19.226-29.008-19.226-46.416v-52.513c0-21.751-17.633-39.385-39.385-39.385s-39.385 17.633-39.385 39.385v52.513c0 38.298 15.215 75.030 42.297 102.111 27.082 27.084 63.813 42.299 102.113 42.299h105.025c21.751 0 39.385-17.633 39.385-39.385s-17.633-39.385-39.385-39.385h-105.025zM735.18 553.025c0 21.751 17.633 39.385 39.385 39.385h105.025c38.298 0 75.030-15.215 102.111-42.299 27.086-27.081 42.299-63.814 42.299-102.111v-52.513c0-21.751-17.633-39.385-39.385-39.385s-39.385 17.633-39.385 39.385v52.513c0 17.408-6.916 34.107-19.225 46.416s-29.008 19.225-46.416 19.225h-105.025c-21.751 0-39.385 17.633-39.385 39.385zM409.89 497.599c27.081 27.086 63.814 42.299 102.111 42.299s75.030-15.214 102.111-42.299c27.086-27.081 42.299-63.814 42.299-102.111s-15.214-75.030-42.299-102.111c-27.081-27.086-63.814-42.299-102.111-42.299s-75.030 15.214-102.111 42.299c-27.084 27.081-42.299 63.814-42.299 102.111s15.215 75.030 42.299 102.111zM512.001 461.129c-17.408 0-34.107-6.916-46.416-19.225s-19.225-29.008-19.225-46.416c0-17.408 6.916-34.107 19.225-46.416s29.008-19.225 46.416-19.225c17.408 0 34.107 6.916 46.416 19.225s19.225 29.008 19.225 46.416c0 17.408-6.916 34.107-19.225 46.416s-29.008 19.225-46.416 19.225zM406.976 93.539c-17.409 0-34.105-6.916-46.415-19.225s-19.226-29.008-19.226-46.416v-52.513c0-21.751-17.633-39.385-39.385-39.385s-39.385 17.633-39.385 39.385v52.513c0 38.298 15.215 75.030 42.297 102.111 27.082 27.086 63.813 42.299 102.113 42.299h210.052c38.298 0 75.030-15.214 102.111-42.299 27.086-27.081 42.299-63.814 42.299-102.111v-52.513c0-21.751-17.633-39.385-39.385-39.385s-39.385 17.633-39.385 39.385v52.513c0 17.408-6.916 34.107-19.225 46.416s-29.008 19.225-46.416 19.225h-210.052z" />
<glyph unicode="&#xe906;" glyph-name="content" data-tags="Content" d="M80.193-26.988c0 20.441 16.571 37.012 37.012 37.012h789.59c20.441 0 37.012-16.571 37.012-37.012s-16.571-37.012-37.012-37.012h-789.59c-20.441 0-37.012 16.571-37.012 37.012zM488.316 321.961l291.985 291.988c-39.74 16.54-86.811 43.708-131.323 88.222-44.519 44.522-71.69 91.597-88.226 131.339l-291.992-291.99c-22.784-22.784-34.179-34.179-43.977-46.744-11.558-14.815-21.467-30.848-29.553-47.815-6.854-14.38-11.949-29.669-22.139-60.241l-53.736-161.205c-5.015-15.047-1.1-31.633 10.114-42.845s27.799-15.131 42.844-10.111l161.208 53.731c30.571 10.191 45.857 15.288 60.238 22.144 16.965 8.084 33.001 17.992 47.816 29.551 12.564 9.801 23.959 21.191 46.744 43.975zM861.323 694.972c60.626 60.629 60.626 158.927 0 219.556-60.63 60.629-158.93 60.629-219.555 0l-35.024-35.020c0.479-1.448 0.977-2.917 1.496-4.403 12.836-36.998 37.051-85.499 82.615-131.060 45.559-45.559 94.060-69.778 131.057-82.614 1.48-0.514 2.941-1.010 4.382-1.486l35.028 35.027z" />
<glyph unicode="&#xe907;" glyph-name="crown" data-tags="crown" d="M511.998 828.715c13.17 0 25.463-6.581 32.768-17.537l186.226-279.333 229.018 183.215c12.828 10.262 30.678 11.484 44.783 3.068s21.509-24.705 18.569-40.866l-105.025-577.641c-3.403-18.726-19.713-32.337-38.749-32.337h-735.176c-19.034 0-35.345 13.611-38.749 32.337l-105.025 577.641c-2.939 16.162 4.463 32.45 18.57 40.866s31.956 7.194 44.784-3.068l229.018-183.215 186.223 279.333c7.305 10.956 19.597 17.537 32.768 17.537zM511.998 718.329l-177.281-265.92c-6.123-9.184-15.819-15.381-26.727-17.072-10.908-1.696-22.026 1.265-30.646 8.16l-180.385 144.311 80.32-441.757h669.439l80.318 441.757-180.386-144.311c-8.618-6.895-19.734-9.857-30.646-8.16-10.907 1.691-20.601 7.888-26.724 17.072l-177.283 265.92z" />
<glyph unicode="&#xe908;" glyph-name="docs-2" data-tags="docs-2" d="M96.042 819.909v-727.925c0-86.149 69.837-155.984 155.984-155.984h519.947c86.149 0 155.984 69.834 155.984 155.984v519.947c0 86.147-69.834 155.984-155.984 155.984h-623.936c-28.716 0-51.995 23.279-51.995 51.995zM265.024 455.946c0 21.537 17.459 38.996 38.996 38.996h415.957c21.537 0 38.996-17.459 38.996-38.996s-17.459-38.996-38.996-38.996h-415.957c-21.537 0-38.996 17.459-38.996 38.996zM265.024 273.965c0 21.537 17.459 38.996 38.996 38.996h285.971c21.537 0 38.996-17.459 38.996-38.996s-17.459-38.996-38.996-38.996h-285.971c-21.537 0-38.996 17.459-38.996 38.996zM117.291 867.374c18.119-8.126 30.74-26.322 30.74-47.465h623.936c17.954 0 35.377-2.275 51.995-6.553v42.635c0 63.283-56.051 111.894-118.693 102.945l-561.418-80.203c-10.007-1.429-19.076-5.464-26.559-11.359z" />
<glyph unicode="&#xe909;" glyph-name="docs" data-tags="docs" d="M147.323 917.703c27.082 27.082 63.814 42.297 102.113 42.297h367.591c10.444 0 20.464-4.15 27.847-11.536l262.564-262.564c7.388-7.386 11.537-17.404 11.537-27.849v-577.641c0-38.298-15.214-75.030-42.299-102.111-27.081-27.086-63.814-42.299-102.111-42.299h-525.129c-38.299 0-75.031 15.214-102.115 42.299-27.082 27.081-42.295 63.814-42.295 102.111v735.18c0 38.299 15.214 75.031 42.297 102.113 0 0 0 0 0.001 0.001zM249.436 881.23c-17.409 0-34.105-6.916-46.415-19.226l-0.001-0.001c-12.31-12.309-19.226-29.006-19.226-46.415v-735.18c0-17.408 6.914-34.102 19.227-46.416v0c12.309-12.309 29.004-19.225 46.414-19.225h525.129c17.408 0 34.102 6.916 46.416 19.225 12.309 12.314 19.225 29.008 19.225 46.416v538.257h-170.667c-24.372 0-47.75 9.681-64.985 26.918v0.001c-17.225 17.23-26.913 40.602-26.913 64.979v170.667h-328.206zM656.41 825.532l128.095-128.097h-114.966c-3.482 0-6.821 1.385-9.279 3.841zM660.26 701.278c-2.468 2.466-3.849 5.808-3.849 9.285v114.969zM315.077 395.486c0 21.751 17.633 39.385 39.385 39.385h315.077c21.751 0 39.385-17.633 39.385-39.385s-17.633-39.385-39.385-39.385h-315.077c-21.751 0-39.385 17.633-39.385 39.385zM315.077 185.435c0 21.751 17.633 39.385 39.385 39.385h315.077c21.751 0 39.385-17.633 39.385-39.385s-17.633-39.385-39.385-39.385h-315.077c-21.751 0-39.385 17.633-39.385 39.385z" />
<glyph unicode="&#xe90a;" glyph-name="dropdown" data-tags="dropdown" d="M16.661 715.782c22.217 22.217 58.237 22.217 80.454 0l414.886-414.883 414.888 414.883c22.217 22.217 58.231 22.217 80.448 0s22.217-58.237 0-80.454l-455.112-455.111c-22.217-22.217-58.231-22.217-80.448 0l-455.114 455.111c-22.217 22.217-22.217 58.237 0 80.454z" />
<glyph unicode="&#xe90b;" glyph-name="elements" data-tags="elements" d="M140.474 942.678c27.608 11.436 57.199 17.321 87.081 17.321s59.473-5.887 87.081-17.321c27.608-11.436 52.693-28.197 73.824-49.328s37.892-46.216 49.328-73.824c11.436-27.608 17.321-57.199 17.321-87.081s-5.887-59.473-17.321-87.081c-11.436-27.608-28.197-52.693-49.328-73.824s-46.216-37.892-73.824-49.328c-27.608-11.436-57.199-17.321-87.081-17.321s-59.473 5.887-87.081 17.321c-27.608 11.436-52.693 28.197-73.824 49.328s-37.892 46.216-49.328 73.824c-11.436 27.608-17.321 57.199-17.321 87.081s5.887 59.473 17.321 87.081c11.436 27.608 28.197 52.693 49.328 73.824s46.216 37.892 73.824 49.328zM227.556 846.222c-14.941 0-29.737-2.943-43.541-8.661s-26.347-14.099-36.912-24.664c-10.565-10.565-18.947-23.108-24.664-36.912s-8.661-28.6-8.661-43.541c0-14.941 2.943-29.737 8.661-43.541s14.099-26.347 24.664-36.912c10.565-10.565 23.108-18.947 36.912-24.664s28.6-8.661 43.541-8.661c14.941 0 29.737 2.943 43.541 8.661s26.347 14.099 36.912 24.664c10.565 10.565 18.947 23.108 24.664 36.912s8.661 28.6 8.661 43.541c0 14.941-2.943 29.737-8.661 43.541s-14.099 26.347-24.664 36.912c-10.565 10.565-23.108 18.947-36.912 24.664s-28.6 8.661-43.541 8.661zM568.889 903.11c0 31.419 25.471 56.889 56.889 56.889h341.333c31.417 0 56.889-25.471 56.889-56.889v-341.333c0-31.419-25.471-56.889-56.889-56.889h-341.333c-31.417 0-56.889 25.471-56.889 56.889v341.333zM682.666 846.222v-227.556h227.556v227.556h-227.556zM0.001 334.223c0 31.417 25.471 56.889 56.889 56.889h341.333c31.419 0 56.889-25.471 56.889-56.889v-341.333c0-31.417-25.471-56.889-56.889-56.889h-341.333c-31.419 0-56.889 25.471-56.889 56.889v341.333zM113.778 277.334v-227.556h227.556v227.556h-227.556zM635.54 324.46c42.675 42.675 100.557 66.651 160.904 66.651s118.231-23.977 160.904-66.651c42.675-42.675 66.651-100.557 66.651-160.904s-23.977-118.231-66.651-160.904c-42.675-42.675-100.557-66.651-160.904-66.651s-118.231 23.977-160.904 66.651c-42.675 42.675-66.651 100.557-66.651 160.904s23.977 118.231 66.651 160.904zM796.444 277.334c-30.173 0-59.119-11.984-80.456-33.321s-33.321-50.283-33.321-80.456c0-30.173 11.984-59.119 33.321-80.456s50.283-33.321 80.456-33.321c30.173 0 59.119 11.984 80.456 33.321s33.321 50.283 33.321 80.456c0 30.173-11.984 59.119-33.321 80.456s-50.283 33.321-80.456 33.321z" />
<glyph unicode="&#xe90c;" glyph-name="extensions" data-tags="extensions" d="M33.325 926.675c21.337 21.337 50.277 33.325 80.453 33.325h227.556c30.176 0 59.116-11.988 80.453-33.325s33.325-50.277 33.325-80.453v-227.556c0-30.176-11.988-59.116-33.325-80.453s-50.277-33.325-80.453-33.325h-227.556c-30.176 0-59.116 11.988-80.453 33.325s-33.325 50.277-33.325 80.453v227.556c0 30.176 11.988 59.116 33.325 80.453zM341.333 846.223h-227.556v-227.556h227.556v227.556zM602.21 926.675c21.337 21.337 50.283 33.325 80.456 33.325h227.556c30.173 0 59.119-11.988 80.456-33.325s33.321-50.277 33.321-80.453v-227.556c0-30.176-11.984-59.115-33.321-80.453s-50.283-33.325-80.456-33.325h-227.556c-30.173 0-59.119 11.988-80.456 33.325-21.335 21.337-33.321 50.277-33.321 80.453v227.556c0 30.176 11.988 59.116 33.321 80.453zM910.221 846.223h-227.556v-227.556h227.556v227.556zM33.325 357.79c21.337 21.335 50.277 33.321 80.453 33.321h227.556c30.176 0 59.116-11.988 80.453-33.321 21.337-21.337 33.325-50.283 33.325-80.456v-227.556c0-30.173-11.988-59.119-33.325-80.456s-50.277-33.321-80.453-33.321h-227.556c-30.176 0-59.115 11.984-80.453 33.321s-33.325 50.283-33.325 80.456v227.556c0 30.173 11.988 59.119 33.325 80.456zM341.333 277.335h-227.556v-227.556h227.556v227.556zM796.443 391.112c31.417 0 56.889-25.471 56.889-56.889v-113.777h113.777c31.417 0 56.889-25.471 56.889-56.889s-25.471-56.889-56.889-56.889h-113.777v-113.777c0-31.417-25.471-56.889-56.889-56.889s-56.889 25.471-56.889 56.889v113.777h-113.777c-31.417 0-56.889 25.471-56.889 56.889s25.471 56.889 56.889 56.889h113.777v113.777c0 31.417 25.471 56.889 56.889 56.889z" />
<glyph unicode="&#xe90d;" glyph-name="form-marketing" data-tags="form-marketing" d="M409.602-63.999h204.798c193.084 0 289.63 0 349.61 59.985 59.985 59.98 59.985 156.528 59.985 349.61s0 289.628-59.985 349.612c-18.565 18.565-40.658 31.384-68.033 40.236 0.020-8.68 0.020-17.556 0.020-26.586v-110.494c0-1.504 0.016-3.14 0.031-4.897 0.149-17.431 0.404-46.646-12.114-73.372-12.518-26.731-35.122-45.24-48.614-56.283-1.346-1.1-2.636-2.155-3.779-3.108l-77.132-64.281c-44.072-36.726-82.437-68.699-116.924-90.879-37.171-23.91-77.382-41.594-125.465-41.594s-88.288 17.684-125.465 41.594c-34.488 22.179-72.851 54.154-116.92 90.879l-77.132 64.281c-1.156 0.958-2.422 1.997-3.781 3.108-13.488 11.043-36.093 29.552-48.613 56.283-12.519 26.726-12.265 55.941-12.114 73.372 0.014 1.757 0.029 3.395 0.029 4.897v110.494c-0.001 9.041-0.001 17.913 0.020 26.604-27.373-8.852-49.457-21.677-68.036-40.254-59.984-59.984-59.984-156.528-59.984-349.612s0-289.63 59.984-349.61c59.984-59.985 156.528-59.985 349.612-59.985zM241.665 519.7l73.689-61.408c94.035-78.36 141.049-117.544 196.661-117.544 55.607 0 102.629 39.183 196.662 117.544l73.691 61.408c18.114 15.098 27.176 22.645 32.010 32.968 4.834 10.32 4.834 22.112 4.834 45.697v105.637c0 16.416 0 31.716-0.097 45.993-0.599 90.679-5.003 140.124-37.39 172.515-37.494 37.49-97.831 37.49-218.509 37.49h-102.399c-120.677 0-181.016 0-218.506-37.49-32.39-32.39-36.891-81.836-37.49-172.515-0.095-14.277 0-29.577 0-45.993v-105.637c0-23.585 0-35.377 4.834-45.697 4.834-10.322 13.892-17.87 32.011-32.968zM371.215 755.203c0 21.207 17.192 38.4 38.397 38.4h204.798c21.207 0 38.4-17.192 38.4-38.4s-17.192-38.4-38.4-38.4h-204.798c-21.205 0-38.397 17.192-38.397 38.4zM422.412 601.604c0 21.207 17.192 38.4 38.4 38.4h102.399c21.207 0 38.4-17.192 38.4-38.4s-17.192-38.4-38.4-38.4h-102.399c-21.207 0-38.4 17.192-38.4 38.4z" />
<glyph unicode="&#xe90e;" glyph-name="github" data-tags="github" d="M382.106 893.239c102.792 23.972 209.725 23.971 312.518 0 59.276 37.592 105.114 54.789 138.497 62.045 18.063 3.927 32.382 4.919 43.054 4.682 5.325-0.119 9.701-0.542 13.133-1.044 1.719-0.251 3.195-0.52 4.434-0.78 0.622-0.13 1.181-0.256 1.677-0.377l0.707-0.175 0.544-0.142c0.037-0.010 0.068-0.020-10.334-38.168l10.402 38.148c11.409-3.11 20.82-11.161 25.665-21.943 24.879-55.377 29.577-117.445 13.756-175.538 40.865-50.079 63.467-112.917 63.53-178.052v-0.040c0-129.433-38.356-216.853-103.289-273.077-47.36-41.008-105.435-62.313-163.72-73.869 0.591-2.52 1.102-5.082 1.54-7.703 2.573-15.433 2.288-33.743 2.019-51.363-0.084-5.352-0.163-10.644-0.163-15.77v-184.529c0-21.838-17.704-39.542-39.542-39.542s-39.542 17.704-39.542 39.542v184.529c0 9.722 0.116 17.557 0.211 24.095 0.205 14.119 0.321 22.165-0.991 30.036-1.070 6.422-3.031 12.39-13.998 23.356-10.771 10.767-14.398 26.763-9.327 41.119 5.066 14.361 17.931 24.537 33.073 26.156 71.181 7.629 133.831 24.9 178.677 63.731 43.143 37.354 75.963 100.183 75.968 213.25-0.053 52.731-20.63 103.374-57.368 141.205-10.665 10.984-14.030 27.139-8.641 41.47 13.966 37.12 15.337 77.558 4.308 115.192-2.7-0.415-5.689-0.963-8.983-1.678-24.532-5.333-66.125-20.129-126.181-60.164-9.379-6.255-20.989-8.206-31.897-5.364-100.642 26.21-206.309 26.21-306.95 0-10.912-2.842-22.518-0.89-31.899 5.364-60.053 40.035-101.65 54.832-126.181 60.164-3.293 0.715-6.286 1.263-8.982 1.678-11.029-37.633-9.658-78.072 4.306-115.193 5.39-14.332 2.024-30.486-8.644-41.47-36.733-37.826-57.306-88.462-57.364-141.187 0.004-113.073 32.824-175.908 75.97-213.268 44.844-38.83 107.494-56.103 178.676-63.731 15.141-1.619 28.007-11.795 33.073-26.156 5.073-14.356 1.445-30.352-9.327-41.119-10.543-10.544-14.429-19.339-16.149-28.275-2.027-10.539-1.52-23.625 1.065-44.308 0.203-1.624 0.305-3.263 0.305-4.903v-78.177c0.015-0.612 0.015-1.223 0-1.83v-104.523c0-21.838-17.704-39.542-39.542-39.542s-39.542 17.704-39.542 39.542v54.584c-39.163-7.055-73.327-5.81-103.575 2.647-43.144 12.068-73.397 37.454-96.295 63.789-14.268 16.407-28.143 36.59-39.546 53.182-5.179 7.534-9.847 14.325-13.811 19.687-15.493 20.946-25.676 29.129-34.725 31.792-20.951 6.164-32.94 28.138-26.777 49.090s28.142 32.941 49.093 26.777c35.765-10.518 59.194-37.923 75.992-60.636 7.464-10.091 13.689-19.222 19.575-27.859 9.569-14.040 18.241-26.763 29.878-40.143 16.645-19.138 34.502-32.967 57.919-39.516 19.23-5.378 45.439-6.743 82.272 1.94v46.765c-2.534 20.841-4.337 43.75 0.052 66.573 0.706 3.67 1.558 7.281 2.567 10.851-58.027 11.588-115.794 32.888-162.945 73.711-64.933 56.224-103.288 143.643-103.288 273.077v0.041c0.067 65.133 22.661 127.972 63.533 178.052-15.824 58.092-11.13 120.161 13.752 175.538 4.845 10.783 14.26 18.833 25.664 21.943l10.404-38.148c-10.404 38.148-10.369 38.158-10.333 38.168l0.073 0.020 0.151 0.040 0.318 0.083 0.704 0.175c0.499 0.12 1.059 0.247 1.678 0.377 1.239 0.258 2.716 0.529 4.432 0.78 3.436 0.502 7.812 0.926 13.137 1.044 10.671 0.237 24.989-0.755 43.054-4.682 33.381-7.257 79.219-24.454 138.497-62.045z" />
<glyph unicode="&#xe90f;" glyph-name="home" data-tags="home" d="M484.151 948.464c15.381 15.381 40.314 15.381 55.695 0l472.616-472.617c11.264-11.264 14.635-28.204 8.539-42.918-6.097-14.719-20.454-24.314-36.386-24.314h-65.641v-328.206c0-38.298-15.214-75.030-42.299-102.111-27.081-27.086-63.814-42.299-102.111-42.299h-525.128c-38.299 0-75.031 15.214-102.114 42.299-27.082 27.081-42.295 63.814-42.295 102.111v328.206h-65.641c-15.93 0-30.29 9.594-36.386 24.314-6.096 14.714-2.726 31.654 8.538 42.918l472.617 472.617zM134.466 487.386h9.943c21.751 0 39.385-17.633 39.385-39.385v-367.59c0-17.408 6.914-34.102 19.227-46.416v0c12.309-12.309 29.004-19.225 46.414-19.225h525.128c17.408 0 34.102 6.916 46.416 19.225 12.309 12.314 19.225 29.008 19.225 46.416v367.59c0 21.751 17.633 39.385 39.385 39.385h9.941l-377.53 377.532-377.532-377.532zM367.588 237.949c0 21.751 17.633 39.385 39.385 39.385h210.052c21.751 0 39.385-17.633 39.385-39.385s-17.633-39.385-39.385-39.385h-210.052c-21.751 0-39.385 17.633-39.385 39.385z" />
<glyph unicode="&#xe910;" glyph-name="install" data-tags="install" d="M512 960c22.927 0 41.514-18.586 41.514-41.514v-563.992l205.891 205.885c16.212 16.212 42.493 16.212 58.705 0s16.212-42.493 0-58.705l-276.757-276.757c-16.212-16.212-42.493-16.212-58.705 0l-276.759 276.757c-16.212 16.212-16.212 42.493 0 58.705s42.497 16.212 58.709 0l205.889-205.885v563.992c0 22.927 18.586 41.514 41.514 41.514zM69.189 240.432c22.927 0 41.514-18.586 41.514-41.514v-110.702c0-18.349 7.288-35.946 20.266-48.925v0c12.974-12.974 30.572-20.264 48.922-20.264h664.217c18.349 0 35.946 7.29 48.925 20.264 12.974 12.979 20.264 30.576 20.264 48.925v110.702c0 22.927 18.586 41.514 41.514 41.514s41.514-18.586 41.514-41.514v-110.702c0-40.368-16.036-79.086-44.586-107.63-28.544-28.55-67.264-44.586-107.63-44.586h-664.217c-40.369 0-79.087 16.036-107.634 44.586-28.546 28.544-44.582 67.264-44.582 107.63v110.702c0 22.927 18.586 41.514 41.514 41.514z" />
<glyph unicode="&#xe911;" glyph-name="leardash" data-tags="leardash" d="M625.519 883.217c-72.755 34.11-154.291 34.11-227.044 0l-342.585-160.611c-55.091-25.829-69.455-98.659-43.090-148.995v-253.611c0-21.208 17.192-38.4 38.4-38.4s38.4 17.192 38.4 38.4v195.993l308.88-144.809c72.755-34.11 154.291-34.11 227.046 0l342.584 160.609c74.521 34.937 74.521 155.874 0 190.809l-342.589 160.614zM153.598 401.167v-189.987c0-51.61 25.78-99.932 70.928-124.938 75.18-41.63 195.516-99.041 287.47-99.041s212.29 57.41 287.473 99.041c45.148 25.006 70.927 73.328 70.927 124.938v189.982l-212.275-99.517c-93.409-43.792-198.835-43.792-292.245 0l-212.278 99.522z" />
<glyph unicode="&#xe912;" glyph-name="light" data-tags="light" d="M371.202 104.503c0 21.479 17.192 38.886 38.4 38.886h204.8c21.208 0 38.4-17.408 38.4-38.886 0-21.473-17.192-38.886-38.4-38.886h-204.8c-21.208 0-38.4 17.413-38.4 38.886zM405.335-25.115c0 21.479 17.195 38.886 38.401 38.886h136.53c21.208 0 38.4-17.408 38.4-38.886s-17.192-38.886-38.4-38.886h-136.53c-21.208 0-38.401 17.408-38.401 38.886zM277.024 354.39l56.527-53.882c15.859-15.114 24.851-36.188 24.851-58.24 0-33.132 26.521-59.992 59.238-59.992h188.723c32.717 0 59.238 26.86 59.238 59.992 0 22.052 8.99 43.126 24.852 58.24l56.525 53.882c78.91 75.786 122.972 175.355 123.418 278.866l0.005 4.348c0 176.863-160.46 322.396-358.401 322.396s-358.401-145.532-358.401-322.396l0.004-4.348c0.444-103.511 44.509-203.080 123.418-278.866z" />
<glyph unicode="&#xe913;" glyph-name="link" data-tags="link" d="M89.043 893.216c0 36.883 29.9 66.783 66.783 66.783h801.391c36.883 0 66.783-29.9 66.783-66.783v-801.391c0-36.883-29.9-66.783-66.783-66.783s-66.783 29.9-66.783 66.783v640.163l-776.429-776.427c-26.081-26.081-68.365-26.081-94.445 0s-26.081 68.358 0 94.439l776.427 776.433h-640.159c-36.883 0-66.783 29.9-66.783 66.783z" />
<glyph unicode="&#xe914;" glyph-name="lock" data-tags="Lock" d="M249.437 500.513v0zM144.41 80.41v0zM262.564 500.513c0-21.751 17.633-39.385 39.385-39.385s39.385 17.633 39.385 39.385h-78.769zM512 920.615v0zM722.051 710.563v0zM682.667 500.513c0-21.751 17.633-39.385 39.385-39.385s39.385 17.633 39.385 39.385h-78.769zM183.795 395.487c0 17.408 6.916 34.107 19.226 46.416l-55.698 55.695c-27.082-27.081-42.297-63.814-42.297-102.111h78.769zM203.021 441.903c12.31 12.309 29.006 19.225 46.415 19.225v78.769c-38.3 0-75.031-15.214-102.113-42.299l55.698-55.695zM249.437 461.129h525.128v78.769h-525.128v-78.769zM774.563 461.129c17.408 0 34.107-6.916 46.416-19.225l55.695 55.695c-27.081 27.086-63.814 42.299-102.111 42.299v-78.769zM820.979 441.903c12.309-12.309 19.225-29.008 19.225-46.416h78.769c0 38.298-15.214 75.030-42.299 102.111l-55.695-55.695zM840.205 395.487v-315.077h78.769v315.077h-78.769zM840.205 80.41c0-17.408-6.916-34.107-19.225-46.416l55.695-55.695c27.086 27.081 42.299 63.814 42.299 102.111h-78.769zM820.979 33.994c-12.309-12.309-29.008-19.225-46.416-19.225v-78.769c38.298 0 75.030 15.214 102.111 42.299l-55.695 55.695zM774.563 14.77h-525.128v-78.769h525.128v78.769zM249.437 14.77c-17.409 0-34.105 6.916-46.415 19.225l-55.698-55.695c27.082-27.086 63.813-42.299 102.113-42.299v78.769zM203.021 33.994c-12.31 12.309-19.226 29.008-19.226 46.416h-78.769c0-38.298 15.215-75.030 42.297-102.111l55.698 55.695zM183.795 80.41v315.077h-78.769v-315.077h78.769zM420.102 237.949c0-24.372 9.684-47.745 26.918-64.98l55.695 55.695c-2.463 2.463-3.844 5.803-3.844 9.284h-78.769zM447.020 172.97c17.234-17.234 40.608-26.918 64.98-26.918v78.769c-3.482 0-6.821 1.381-9.284 3.844l-55.695-55.695zM512 146.052c24.372 0 47.745 9.684 64.98 26.918l-55.695 55.695c-2.463-2.463-5.803-3.844-9.284-3.844v-78.769zM576.98 172.97c17.234 17.234 26.918 40.608 26.918 64.98h-78.769c0-3.482-1.381-6.821-3.844-9.284l55.695-55.695zM603.898 237.949c0 24.372-9.684 47.745-26.918 64.98l-55.695-55.695c2.463-2.463 3.844-5.803 3.844-9.284h78.769zM576.98 302.928c-17.234 17.234-40.608 26.918-64.98 26.918v-78.769c3.482 0 6.821-1.381 9.284-3.844l55.695 55.695zM512 329.846c-24.372 0-47.745-9.684-64.98-26.918l55.695-55.695c2.463 2.463 5.803 3.844 9.284 3.844v78.769zM447.020 302.928c-17.234-17.234-26.918-40.608-26.918-64.98h78.769c0 3.482 1.381 6.821 3.844 9.284l-55.695 55.695zM341.333 500.513v210.051h-78.769v-210.051h78.769zM341.333 710.563c0 45.264 17.98 88.673 49.986 120.679l-55.698 55.698c-46.778-46.778-73.058-110.223-73.058-176.378h78.769zM391.321 831.244c32.006 32.006 75.414 49.986 120.679 49.986v78.769c-66.155 0-129.6-26.279-176.378-73.058l55.698-55.698zM512 881.23c45.266 0 88.673-17.98 120.679-49.986l55.701 55.698c-46.778 46.778-110.224 73.058-176.38 73.058v-78.769zM632.679 831.244c32.006-32.006 49.986-75.417 49.986-120.679h78.769c0 66.155-26.277 129.6-73.056 176.378l-55.701-55.698zM682.667 710.563v-210.051h78.769v210.051h-78.769z" />
<glyph unicode="&#xe915;" glyph-name="marketing" data-tags="Marketing" d="M904.933 364.651c0 19.728-15.993 35.721-35.721 35.721h-142.884c-19.728 0-35.721-15.993-35.721-35.721v-321.488h-71.442v773.953c0 34.688-0.076 57.11-2.296 73.631-2.086 15.494-5.449 20.35-8.168 23.069s-7.573 6.083-23.066 8.166c-16.522 2.221-38.946 2.297-73.633 2.297s-57.111-0.076-73.633-2.297c-15.493-2.083-20.349-5.446-23.068-8.166s-6.083-7.575-8.166-23.069c-2.221-16.521-2.297-38.944-2.297-73.631v-773.953h-71.442v559.628c0 19.728-15.993 35.721-35.721 35.721h-142.884c-19.728 0-35.721-15.993-35.721-35.721v-559.628h-83.349c-19.728 0-35.721-15.993-35.721-35.721s15.993-35.721 35.721-35.721h952.558c19.728 0 35.721 15.993 35.721 35.721s-15.993 35.721-35.721 35.721h-83.349v321.488z" />
<glyph unicode="&#xe916;" glyph-name="notes" data-tags="notes" d="M111.185 900.016c-59.984-59.984-59.984-156.528-59.984-349.615v-204.8c0-193.086 0-289.633 59.984-349.614 59.984-59.986 156.528-59.986 349.615-59.986h102.4c193.086 0 289.633 0 349.614 59.986 59.986 59.981 59.986 156.529 59.986 349.614v204.8c0 193.087 0 289.631-59.986 349.615-59.981 59.984-156.529 59.984-349.614 59.984h-102.4c-193.087 0-289.631 0-349.615-59.984zM268.8 652.8c0 21.208 17.192 38.4 38.4 38.4h409.6c21.208 0 38.4-17.192 38.4-38.4s-17.192-38.4-38.4-38.4h-409.6c-21.208 0-38.4 17.192-38.4 38.4zM268.8 448c0 21.208 17.192 38.4 38.4 38.4h409.6c21.208 0 38.4-17.192 38.4-38.4s-17.192-38.4-38.4-38.4h-409.6c-21.208 0-38.4 17.192-38.4 38.4zM307.201 281.6c-21.208 0-38.4-17.192-38.4-38.4s17.192-38.4 38.4-38.4h256c21.208 0 38.4 17.192 38.4 38.4s-17.192 38.4-38.4 38.4h-256z" />
<glyph unicode="&#xe917;" glyph-name="plug" data-tags="plug" d="M722.893 943.338c22.217-22.216 22.217-58.237 0-80.453l-165.003-165.005 203.991-203.992 165.008 165.005c22.217 22.216 58.232 22.216 80.448 0s22.217-58.237 0-80.453l-165-165.005 51.215-51.216c10.672-10.672 16.664-25.137 16.664-40.232 0-15.087-5.992-29.552-16.664-40.224l-116.471-116.471c-35.628-36.94-78.233-66.431-125.353-86.767-47.301-20.412-98.196-31.191-149.708-31.691-51.512-0.508-102.609 9.269-150.3 28.748-30.020 12.265-58.312 28.217-84.241 47.445l-170.363-170.363c-22.216-22.217-58.237-22.217-80.453 0s-22.216 58.232 0 80.448l170.361 170.363c-19.229 25.933-35.187 54.227-47.451 84.248-19.48 47.696-29.253 98.791-28.748 150.303s11.279 102.408 31.692 149.707c20.335 47.121 49.829 89.731 86.768 125.355l116.471 116.471c22.216 22.216 58.237 22.216 80.453 0l51.227-51.227 165.008 165.005c22.217 22.216 58.232 22.216 80.448 0zM385.985 708.88l-77.42-77.404c-26.228-25.219-47.164-55.416-61.581-88.824s-22.028-69.356-22.384-105.74c-0.357-36.384 6.547-72.477 20.305-106.156 13.76-33.685 34.099-64.292 59.828-90.021 25.729-25.721 56.331-46.065 90.015-59.824s69.773-20.663 106.159-20.305c36.384 0.356 72.332 7.964 105.737 22.384 33.413 14.42 63.609 35.355 88.823 61.584l0.781 0.796 76.625 76.625-386.888 386.886z" />
<glyph unicode="&#xe918;" glyph-name="regenerate" data-tags="regenerate" d="M637.956 854.392c3.75 3.711 8.836 5.82 14.109 5.82s10.358-2.108 14.109-5.82c0.005-0.009-0.009 0.008 0 0l280.002-280.001c0.009-0.009-0.009 0.009 0 0 3.712-3.75 5.792-8.812 5.792-14.080 0-5.283-2.089-10.354-5.82-14.109l-504.924-510.412h-137.905l-225.466 230.28c-3.728 3.75-5.82 8.827-5.82 14.109 0 5.273 2.108 10.358 5.82 14.109 0.009 0.009-0.009-0.009 0 0l560.103 560.104c0.009 0.009-0.009-0.009 0 0zM456.288-36.244h420.159c19.891 0 36.017 16.126 36.017 36.017s-16.126 36.017-36.017 36.017h-333.902l454.687 459.633c0.014 0.009 0.024 0.024 0.038 0.038 17.12 17.24 26.73 40.55 26.73 64.849 0 24.319-9.624 47.647-26.768 64.887l-280.281 280.282c-17.245 17.141-40.57 26.765-64.887 26.765-24.313 0-47.643-9.624-64.887-26.765l-0.077-0.076-560.335-560.337c-17.14-17.24-26.765-40.564-26.765-64.887 0-24.266 9.584-47.546 26.66-64.782 0.035-0.038 0.070-0.072 0.105-0.105l235.677-240.715c6.774-6.92 16.051-10.82 25.736-10.82h168.044c0.024 0 0.043 0 0.067 0zM441.998 753.573c14.066 14.065 36.867 14.065 50.933 0l352.962-352.965c14.066-14.066 14.066-36.867 0-50.933s-36.867-14.066-50.933 0l-352.962 352.962c-14.066 14.065-14.066 36.869 0 50.935z" />
<glyph unicode="&#xe919;" glyph-name="right-arrow" data-tags="right-arrow" d="M240.851 938.578c28.565 28.564 74.875 28.564 103.44 0l438.859-438.859c28.562-28.562 28.562-74.877 0-103.439l-438.859-438.859c-28.565-28.562-74.875-28.562-103.44 0s-28.564 74.877 0 103.439l387.14 387.138-387.14 387.138c-28.564 28.565-28.564 74.875 0 103.44z" />
<glyph unicode="&#xe91a;" glyph-name="settings" data-tags="settings" d="M561.68 842.17c-12.635 52.080-86.73 52.080-99.365 0l-0.005-0.021c-20.795-85.508-118.518-126.042-193.795-80.273l-0.020 0.012c-45.825 27.899-98.223-24.555-70.341-70.324 10.644-17.462 17.015-37.189 18.596-57.576 1.582-20.394-1.675-40.871-9.504-59.768s-20.009-35.676-35.549-48.978c-15.537-13.296-33.995-22.738-53.869-27.558-52.080-12.635-52.080-86.73 0-99.365l0.021-0.005c19.861-4.831 38.303-14.278 53.826-27.58 15.522-13.296 27.689-30.074 35.509-48.957s11.073-39.348 9.495-59.728c-1.578-20.38-7.941-40.098-18.575-57.554-27.888-45.828 24.561-98.214 70.328-70.336 17.461 10.645 37.189 17.014 57.576 18.594 20.394 1.58 40.871-1.675 59.768-9.505s35.676-20.007 48.978-35.546c13.296-15.538 22.738-33.996 27.558-53.873 12.635-52.077 86.73-52.077 99.365 0l0.005 0.021c4.831 19.861 14.278 38.303 27.58 53.825 13.296 15.522 30.074 27.69 48.957 35.509s39.348 11.074 59.728 9.494c20.38-1.575 40.098-7.94 57.554-18.573 45.823-27.884 98.214 24.565 70.336 70.33-10.645 17.461-17.014 37.19-18.594 57.575-1.58 20.396 1.675 40.876 9.505 59.77 7.83 18.9 20.007 35.677 35.546 48.978 15.538 13.296 33.996 22.738 53.873 27.558 52.077 12.635 52.077 86.73 0 99.365l-0.021 0.005c-19.861 4.831-38.303 14.278-53.825 27.58-15.522 13.296-27.69 30.071-35.509 48.957s-11.074 39.349-9.494 59.729c1.575 20.379 7.94 40.1 18.573 57.556 27.884 45.823-24.565 98.214-70.33 70.333-17.461-10.644-37.19-17.015-57.575-18.596-20.396-1.582-40.876 1.675-59.77 9.504-18.9 7.829-35.677 20.009-48.978 35.549-13.296 15.537-22.738 33.995-27.558 53.869zM385.771 860.761c32.119 132.325 220.356 132.317 252.463-0.021v-0.011c1.895-7.826 5.614-15.094 10.849-21.212s11.841-10.913 19.282-13.996c7.441-3.082 15.502-4.364 23.531-3.742s15.796 3.132 22.674 7.324l0.011 0.007c116.284 70.842 249.415-62.235 178.585-178.569l-0.005-0.007c-4.186-6.873-6.69-14.636-7.31-22.66s0.656-16.080 3.739-23.515c3.077-7.435 7.866-14.039 13.979-19.274 6.107-5.231 13.359-8.949 21.168-10.852 132.348-32.105 132.348-220.363 0-252.468h-0.011c-7.824-1.895-15.092-5.614-21.21-10.849s-10.917-11.841-14-19.282c-3.083-7.441-4.364-15.502-3.739-23.531 0.619-8.030 3.13-15.796 7.326-22.674l0.005-0.011c70.839-116.284-62.232-249.415-178.569-178.585l-0.005 0.005c-6.874 4.186-14.64 6.69-22.665 7.31-8.018 0.619-16.080-0.656-23.51-3.739-7.436-3.077-14.042-7.866-19.277-13.979-5.231-6.107-8.948-13.359-10.849-21.168-32.106-132.348-220.364-132.348-252.468 0l-0.002 0.011c-1.897 7.824-5.614 15.092-10.849 21.21s-11.842 10.917-19.282 14c-7.44 3.083-15.502 4.364-23.531 3.739-8.028-0.619-15.797-3.13-22.672-7.326l-0.012-0.005c-116.285-70.839-249.411 62.232-178.587 178.569l0.005 0.005c4.186 6.874 6.692 14.64 7.312 22.665 0.622 8.018-0.66 16.080-3.738 23.51-3.079 7.436-7.868 14.042-13.979 19.277-6.106 5.231-13.359 8.948-21.17 10.849-132.344 32.106-132.344 220.364 0 252.468l0.011 0.002c7.826 1.897 15.094 5.614 21.212 10.849s10.913 11.842 13.996 19.282c3.082 7.44 4.364 15.502 3.742 23.531s-3.132 15.797-7.324 22.672l-0.007 0.012c-70.838 116.278 62.22 249.396 178.55 178.598 29.743-18.084 68.123-2.124 76.327 31.558zM372.753 587.245c36.929 36.93 87.016 57.677 139.245 57.677s102.316-20.747 139.248-57.677c36.927-36.929 57.675-87.016 57.675-139.245s-20.748-102.316-57.675-139.248c-36.932-36.927-87.019-57.675-139.248-57.675s-102.316 20.748-139.245 57.675c-36.93 36.932-57.677 87.019-57.677 139.248s20.747 102.316 57.677 139.245zM511.998 566.154c-31.334 0-61.387-12.448-83.548-34.605-22.157-22.16-34.605-52.213-34.605-83.548s12.448-61.387 34.605-83.548c22.16-22.155 52.213-34.605 83.548-34.605s61.387 12.45 83.548 34.605c22.155 22.16 34.605 52.213 34.605 83.548s-12.45 61.387-34.605 83.548c-22.16 22.157-52.213 34.605-83.548 34.605z" />
<glyph unicode="&#xe91b;" glyph-name="share-fill" data-tags="share-fill" d="M604.314 789.333c0 94.256 76.759 170.666 171.443 170.666s171.443-76.41 171.443-170.666c0-94.256-76.759-170.668-171.443-170.668-47.81 0-91.019 19.493-122.081 50.852l-237.332-161.588c2.191-10.906 3.343-22.17 3.343-33.674 0-22.784-4.506-44.564-12.667-64.471l260.234-170.977c29.537 24.049 67.328 38.528 108.503 38.528 94.684 0 171.443-76.411 171.443-170.67 0-94.254-76.759-170.665-171.443-170.665s-171.443 76.411-171.443 170.665c0 24.689 5.284 48.19 14.782 69.407l-258.132 169.595c-30.112-26.168-69.553-42.076-112.722-42.076-94.685 0-171.442 76.411-171.442 170.665 0 94.258 76.758 170.668 171.442 170.668 54.448 0 102.914-25.262 134.296-64.58l230.014 156.608c-5.351 16.529-8.238 34.141-8.238 52.382z" />
<glyph unicode="&#xe91c;" glyph-name="star-2" data-tags="star -2" d="M30 405.495c-39.996 14.225-39.996 70.788 0 85.014l303.994 108.11c12.785 4.546 22.843 14.606 27.389 27.389l108.111 303.994c14.223 39.998 70.788 39.998 85.013 0l108.111-303.994c4.545-12.785 14.606-22.843 27.389-27.389l303.992-108.11c39.998-14.225 39.998-70.788 0-85.014l-303.992-108.11c-12.785-4.546-22.844-14.606-27.389-27.389l-108.111-303.998c-14.223-39.998-70.788-39.998-85.013 0l-108.111 303.998c-4.546 12.784-14.606 22.843-27.389 27.389l-303.994 108.11z" />
<glyph unicode="&#xe91d;" glyph-name="star-half" data-tags="star-half" d="M512.31 937.225c7.596-0.028 15.070-1.928 21.758-5.528s12.387-8.792 16.595-15.116l3.123-5.405 132.906-269.401 297.315-43.106c34.531-5.033 50.329-43.805 32.761-71.113l-3.262-4.427-3.635-4.007-215.484-209.659 50.796-296.151c1.324-7.726 0.68-15.658-1.873-23.068s-6.934-14.060-12.732-19.33c-5.802-5.271-12.839-8.994-20.458-10.83-7.619-1.832-15.578-1.719-23.142 0.335l-4.706 1.631-4.706 2.144-265.3 139.804-265.906-139.804c-4.893-2.563-9.879-4.194-14.912-4.94l-4.94-0.466c-6.504-0.238-12.985 0.886-19.031 3.3-6.045 2.409-11.52 6.059-16.073 10.709s-8.086 10.201-10.371 16.291c-2.285 6.096-3.271 12.601-2.898 19.097l0.606 5.126 50.796 296.151-215.437 209.706c-5.571 5.426-9.698 12.16-12.002 19.587s-2.717 15.313-1.198 22.941c1.519 7.627 4.92 14.754 9.895 20.731s11.366 10.616 18.591 13.494l5.266 1.678 5.313 1.071 297.269 43.106 132.953 269.355c3.709 7.987 9.675 14.714 17.159 19.351 7.489 4.638 16.166 6.983 24.969 6.746zM512.31 784.654v-581.397c3.756 0 7.494-0.452 11.137-1.351l5.36-1.678 5.22-2.33 203.321-107.136-38.958 227.088c-1.92 11.221 0.335 22.76 6.338 32.434l3.262 4.614 3.822 4.194 165.248 160.915-227.927 32.994c-11.264 1.635-21.544 7.338-28.892 16.030l-3.402 4.521-2.796 4.94-101.73 206.163z" />
<glyph unicode="&#xe91e;" glyph-name="star" data-tags="star" d="M337.249 641.822l-297.337-43.11-5.266-1.072c-7.973-2.117-15.24-6.31-21.061-12.155s-9.987-13.127-12.072-21.109c-2.085-7.98-2.015-16.371 0.203-24.316s6.506-15.158 12.424-20.903l215.406-209.675-50.799-296.173-0.606-5.126c-0.488-8.245 1.223-16.47 4.961-23.838 3.737-7.363 9.364-13.609 16.306-18.083s14.948-7.028 23.2-7.392c8.252-0.364 16.452 1.472 23.762 5.317l265.927 139.814 265.32-139.814 4.661-2.144c7.69-3.029 16.050-3.956 24.221-2.689 8.169 1.263 15.855 4.684 22.272 9.904 6.413 5.215 11.321 12.047 14.224 19.788s3.691 16.116 2.293 24.262l-50.845 296.173 215.5 209.722 3.635 3.962c5.192 6.395 8.594 14.053 9.867 22.193 1.268 8.14 0.359 16.471-2.638 24.144-3.002 7.673-7.979 14.414-14.429 19.537-6.454 5.123-14.15 8.443-22.3 9.625l-297.337 43.155-132.916 269.374c-3.849 7.804-9.801 14.377-17.187 18.972-7.392 4.595-15.916 7.032-24.617 7.032s-17.23-2.436-24.617-7.032c-7.392-4.595-13.342-11.168-17.187-18.972l-132.964-269.374z" />
<glyph unicode="&#xe91f;" glyph-name="sun" data-tags="sun" d="M512 960c23.565 0 42.667-19.103 42.667-42.667v-85.333c0-23.564-19.102-42.667-42.667-42.667s-42.667 19.103-42.667 42.667v85.333c0 23.564 19.102 42.667 42.667 42.667zM149.883 810.117c16.663 16.662 43.677 16.662 60.34 0l60.587-60.587c16.662-16.663 16.662-43.677 0-60.34s-43.677-16.662-60.34 0l-60.587 60.587c-16.662 16.663-16.662 43.677 0 60.34zM874.116 810.117c16.661-16.663 16.661-43.677 0-60.34l-60.587-60.587c-16.661-16.662-43.678-16.662-60.339 0s-16.661 43.677 0 60.34l60.587 60.587c16.661 16.662 43.678 16.662 60.339 0zM512 618.667c-94.257 0-170.667-76.41-170.667-170.667 0-94.255 76.41-170.667 170.667-170.667 94.255 0 170.667 76.412 170.667 170.667s-76.412 170.667-170.667 170.667zM256 448c0 141.385 114.615 256 256 256s256-114.615 256-256c0-141.385-114.615-256-256-256s-256 114.615-256 256zM0 448c0 23.565 19.103 42.667 42.667 42.667h85.333c23.564 0 42.667-19.102 42.667-42.667s-19.103-42.667-42.667-42.667h-85.333c-23.564 0-42.667 19.102-42.667 42.667zM853.333 448c0 23.565 19.102 42.667 42.667 42.667h85.333c23.565 0 42.667-19.102 42.667-42.667s-19.102-42.667-42.667-42.667h-85.333c-23.565 0-42.667 19.102-42.667 42.667zM270.81 206.81c16.662-16.661 16.662-43.678 0-60.339l-60.587-60.587c-16.663-16.661-43.677-16.661-60.34 0s-16.662 43.678 0 60.339l60.587 60.587c16.663 16.661 43.677 16.661 60.34 0zM753.19 206.81c16.661 16.661 43.678 16.661 60.339 0l60.587-60.587c16.661-16.661 16.661-43.678 0-60.339s-43.678-16.661-60.339 0l-60.587 60.587c-16.661 16.661-16.661 43.678 0 60.339zM512 106.667c23.565 0 42.667-19.102 42.667-42.667v-85.333c0-23.565-19.102-42.667-42.667-42.667s-42.667 19.102-42.667 42.667v85.333c0 23.565 19.102 42.667 42.667 42.667z" />
<glyph unicode="&#xe920;" glyph-name="support" data-tags="Support" d="M450.206 877.389c2.458 2.458 5.797 3.841 9.279 3.841zM450.206 877.388c-2.468-2.466-3.849-5.808-3.849-9.285v-315.077c0-3.482 1.386-6.821 3.844-9.284 2.463-2.458 5.803-3.844 9.284-3.844h367.59c10.444 0 20.464-4.149 27.847-11.537l90.306-90.301v430.043c0 3.477-1.381 6.82-3.849 9.285zM394.503 933.081c17.233 17.237 40.612 26.918 64.983 26.918h472.615c24.372 0 47.75-9.681 64.985-26.918v-0.001c17.225-17.23 26.913-40.602 26.913-64.978v-525.128c0-15.927-9.594-30.289-24.314-36.386-14.714-6.097-31.654-2.725-42.918 8.539l-146.006 146.001h-351.273c-24.372 0-47.75 9.684-64.981 26.918-17.231 17.23-26.917 40.608-26.917 64.98v315.077c0 24.377 9.687 47.749 26.913 64.978l0.001 0.001zM459.485 881.23h472.615zM932.1 881.23c3.482 0 6.821-1.385 9.279-3.841zM91.896 513.641c-3.477 0-6.82-1.381-9.285-3.849 0 0 0 0-0.001 0zM78.768 70.471l90.305 90.301c7.386 7.388 17.404 11.537 27.849 11.537h367.59c3.482 0 6.821 1.386 9.284 3.844 2.458 2.463 3.844 5.803 3.844 9.284v105.025c0 21.751 17.633 39.385 39.385 39.385s39.385-17.633 39.385-39.385v-105.025c0-24.372-9.684-47.75-26.918-64.98-17.23-17.234-40.608-26.918-64.98-26.918h-351.276l-146.002-146.001c-11.264-11.264-28.204-14.635-42.921-8.539s-24.313 20.459-24.313 36.386v525.128c0 24.372 9.681 47.75 26.918 64.983l0.001 0.001c17.23 17.226 40.602 26.913 64.978 26.913h105.025c21.751 0 39.385-17.633 39.385-39.385s-17.633-39.385-39.385-39.385h-105.025z" />
<glyph unicode="&#xe921;" glyph-name="tool" data-tags="tool" d="M327.587 856.102l117.993-117.993c9.503-9.504 14.843-22.393 14.843-35.833v-152.026c0-27.988-22.689-50.676-50.676-50.676h-152.026c-13.44 0-26.329 5.339-35.833 14.843l-117.993 117.993c-3.71-25.971-3.386-52.515 1.102-78.679 8.86-51.642 33.512-99.267 70.562-136.317 37.050-37.054 84.676-61.702 136.317-70.56 51.642-8.865 104.761-1.493 152.042 21.088 19.379 9.25 42.486 5.29 57.672-9.898l304.050-304.051c10.655-10.655 25.108-16.642 40.182-16.642 15.067 0 29.52 5.986 40.182 16.642 10.655 10.655 16.642 25.108 16.642 40.182 0 15.067-5.986 29.52-16.642 40.182l-304.051 304.049c-15.189 15.185-19.155 38.293-9.898 57.672 22.581 47.281 29.953 100.4 21.088 152.042-8.858 51.642-33.513 99.267-70.561 136.317-37.050 37.049-84.676 61.703-136.317 70.562-26.164 4.49-52.708 4.813-78.679 1.102zM210.545 925.366c66.193 31.614 140.561 41.928 212.86 29.524s138.974-46.919 190.842-98.788c51.872-51.87 86.384-118.546 98.789-190.844 10.338-60.244 4.898-121.923-15.494-179.114l280.126-280.126c29.662-29.662 46.331-69.891 46.331-111.843s-16.668-82.182-46.331-111.843c-29.662-29.669-69.891-46.331-111.843-46.331s-82.182 16.662-111.843 46.331l-280.127 280.126c-57.19-20.392-118.87-25.831-179.114-15.494-72.299 12.398-138.974 46.919-190.844 98.783-51.87 51.873-86.384 118.548-98.788 190.847s-2.090 146.666 29.524 212.86c7.089 14.845 20.944 25.324 37.158 28.107s32.77-2.48 44.402-14.112l162.521-162.521h80.36v80.36l-162.521 162.521c-11.632 11.632-16.894 28.188-14.112 44.402s13.262 30.069 28.107 37.158z" />
<glyph unicode="&#xe922;" glyph-name="link-2" data-tags="link-2" d="M643.656 916.115c0 24.237 19.648 43.886 43.886 43.886h292.571c24.237 0 43.886-19.648 43.886-43.886v-292.571c0-24.237-19.648-43.886-43.886-43.886s-43.886 19.648-43.886 43.886v186.623l-451.713-451.709c-17.139-17.139-44.921-17.139-62.060 0s-17.139 44.921 0 62.060l451.707 451.713h-186.62c-24.237 0-43.886 19.648-43.886 43.886zM47.13 795.842c30.177 30.177 71.107 47.13 113.783 47.13h351.086c24.237 0 43.886-19.648 43.886-43.886s-19.648-43.886-43.886-43.886h-351.086c-19.399 0-38.002-7.706-51.719-21.423l-0.001-0.001c-13.717-13.716-21.423-32.32-21.423-51.719v-585.143c0-19.397 7.705-38 21.424-51.721v0c13.716-13.716 32.319-21.422 51.718-21.422h585.143c19.397 0 38 7.706 51.721 21.422 13.716 13.721 21.422 32.323 21.422 51.721v351.086c0 24.237 19.648 43.886 43.886 43.886s43.886-19.648 43.886-43.886v-351.086c0-42.675-16.952-83.605-47.133-113.781-30.176-30.181-71.107-47.133-113.781-47.133h-585.143c-42.676 0-83.606 16.952-113.783 47.133-30.177 30.176-47.13 71.107-47.13 113.781v585.143c0 42.676 16.952 83.606 47.13 113.783 0 0 0 0 0.001 0.001z" />
<glyph unicode="&#xe923;" glyph-name="close" data-tags="close" d="M21.423 938.577c28.565 28.564 74.875 28.564 103.44 0l387.138-387.14 387.138 387.14c28.562 28.564 74.877 28.564 103.439 0s28.562-74.875 0-103.44l-387.138-387.138 387.138-387.138c28.562-28.562 28.562-74.877 0-103.439s-74.877-28.562-103.439 0l-387.138 387.138-387.138-387.138c-28.565-28.562-74.875-28.562-103.44 0s-28.564 74.877 0 103.439l387.14 387.138-387.14 387.138c-28.564 28.565-28.564 74.875 0 103.44z" />
<glyph unicode="&#xe924;" glyph-name="info" data-tags="info" d="M511.999 732.445c-31.287 0-58.074 11.14-80.355 33.422s-33.422 49.066-33.422 80.356c0 31.287 11.14 58.074 33.422 80.356s49.066 33.421 80.355 33.421c31.289 0 58.076-11.14 80.356-33.421s33.422-49.067 33.422-80.356c0-31.289-11.14-58.074-33.422-80.356s-49.066-33.422-80.356-33.422zM426.667-64v682.666h170.667v-682.666h-170.667z" />
<glyph unicode="&#xe925;" glyph-name="dropdown-up" data-tags="dropdown-up" d="M26.464 301.066c-35.285-35.285-35.285-92.494 0-127.778s92.494-35.285 127.778 0l-127.778 127.778zM512 658.824l63.89 63.89c-35.285 35.285-92.494 35.285-127.778 0l63.89-63.89zM869.759 173.287c35.285-35.285 92.494-35.285 127.778 0s35.285 92.494 0 127.778l-127.778-127.778zM154.242 173.287l421.647 421.647-127.778 127.778-421.647-421.647 127.778-127.778zM448.111 594.934l421.647-421.647 127.778 127.778-421.647 421.647-127.778-127.778z" />
<glyph unicode="&#xe926;" glyph-name="play" data-tags="play" d="M109.713 903.098v-910.2c-0.002-10.117 2.541-20.063 7.369-28.795 4.827-8.725 11.765-15.933 20.095-20.874s17.752-7.43 27.293-7.217c9.541 0.205 18.856 3.112 26.985 8.421l697.278 455.096c7.81 5.089 14.259 12.218 18.733 20.702 4.472 8.485 6.823 18.044 6.823 27.766s-2.351 19.281-6.823 27.766c-4.473 8.484-10.923 15.613-18.733 20.702l-697.278 455.099c-8.129 5.304-17.444 8.212-26.985 8.422s-18.964-2.281-27.293-7.221c-8.331-4.939-15.267-12.146-20.095-20.878s-7.372-18.67-7.369-28.793z" />
<glyph unicode="&#xe927;" glyph-name="right-arrow-long" data-tags="right-arrow-long" d="M524.886 876.218c27.685 27.685 72.571 27.685 100.256 0l378.092-378.091c13.3-13.295 20.767-31.327 20.767-50.128s-7.467-36.835-20.767-50.128l-378.092-378.088c-27.687-27.687-72.571-27.687-100.256 0s-27.685 72.565 0 100.25l257.070 257.074h-711.063c-39.152 0-70.892 31.74-70.892 70.892s31.74 70.892 70.892 70.892h711.063l-257.070 257.070c-27.685 27.685-27.685 72.571 0 100.256z" />
<glyph unicode="&#xe928;" glyph-name="key" data-tags="key" d="M414.153 490.316l449.662 449.662 120.14-120.137-80.089-80.090 120.134-120.137-200.23-200.228-120.134 120.134-169.349-169.342c55.721-106.752 38.754-241.566-50.901-331.221-110.58-110.58-289.869-110.58-400.45 0s-110.582 289.873 0 400.453c89.654 89.655 224.469 106.623 331.217 50.901zM363.253 159.095c44.235 44.236 44.235 115.949 0 160.185-44.233 44.23-115.948 44.23-160.181 0-44.233-44.236-44.233-115.949 0-160.185 44.233-44.23 115.948-44.23 160.181 0z" />
<glyph unicode="&#xe929;" glyph-name="down-arrow-long" data-tags="down-arrow-long" d="M698.158 148.152c-10.503 10.503-26.782 10.503-37.284 0l-122.355-122.355v934.203h-52.513v-934.203l-122.355 122.355c-10.503 10.503-26.782 10.503-37.284 0s-10.503-26.782 0-37.284l166.991-166.991c10.503-10.503 26.782-10.503 37.284 0l166.991 166.991c10.503 10.503 10.503 26.782 0 37.284h0.525z" />
<glyph unicode="&#xe92a;" glyph-name="left-arrow-long" data-tags="left-arrow-long" d="M499.112 876.219c27.685-27.685 27.685-72.572 0-100.257l-257.071-257.071h711.067c39.151 0 70.892-31.74 70.892-70.892s-31.741-70.892-70.892-70.892h-711.067l257.071-257.071c27.685-27.685 27.685-72.572 0-100.257s-72.572-27.685-100.257 0l-378.091 378.091c-27.685 27.685-27.685 72.572 0 100.257l378.091 378.091c27.685 27.685 72.572 27.685 100.257 0z" />
<glyph unicode="&#xe92b;" glyph-name="moon" data-tags="moon" d="M515.186 933.888c9.926-17.615 8.577-39.417-3.442-55.678-43.819-59.283-64.902-132.324-59.423-205.84 5.484-73.515 37.17-142.621 89.299-194.749s121.232-83.816 194.748-89.299c73.515-5.479 146.558 15.605 205.844 59.423 16.256 12.019 38.063 13.368 55.678 3.442 17.61-9.931 27.753-29.276 25.89-49.411-8.967-97.025-45.378-189.484-104.976-266.569-59.593-77.080-139.915-135.596-231.553-168.699s-190.812-39.417-285.912-18.211c-95.099 21.201-182.193 69.053-251.091 137.95s-116.748 155.992-137.952 251.093c-21.205 95.095-14.887 194.27 18.214 285.909s91.616 171.958 168.699 231.556c77.083 59.598 169.544 96.009 266.568 104.976 20.129 1.861 39.479-8.279 49.411-25.894zM373.356 834.88c-39.89-14.432-77.5-35.035-111.395-61.24-61.666-47.678-108.478-111.932-134.959-185.245s-31.535-152.65-14.571-228.73c16.963-76.080 55.244-145.753 110.362-200.872 55.118-55.114 124.792-93.398 200.872-110.362s155.417-11.906 228.732 14.574c73.31 26.481 137.565 73.289 185.242 134.96 26.208 33.893 46.809 71.504 61.239 111.394-54.021-19.544-111.968-27.685-170.14-23.346-98.019 7.31-190.161 49.559-259.664 119.062-69.505 69.503-111.754 161.645-119.063 259.664-4.338 58.171 3.8 116.118 23.345 170.14z" />
<glyph unicode="&#xe92c;" glyph-name="active" data-tags="active" d="M316.065 921.025c62.119 25.73 128.696 38.973 195.934 38.973s133.815-13.243 195.934-38.973c62.119-25.73 118.562-63.444 166.108-110.987 47.536-47.544 85.255-103.986 110.989-166.104 25.724-62.119 38.97-128.698 38.97-195.934s-13.247-133.815-38.97-195.934c-25.733-62.119-63.452-118.56-110.989-166.104-47.545-47.545-103.989-85.255-166.108-110.989s-128.698-38.97-195.934-38.97c-67.238 0-133.815 13.238-195.934 38.97s-118.561 63.443-166.104 110.989c-47.544 47.545-85.258 103.986-110.989 166.104s-38.973 128.696-38.973 195.934c0 67.236 13.243 133.815 38.973 195.934s63.444 118.561 110.989 166.104c47.544 47.544 103.986 85.257 166.104 110.987zM511.999 867.3c-55.065 0-109.588-10.845-160.46-31.917s-97.094-51.957-136.031-90.893c-38.935-38.935-69.821-85.158-90.893-136.031s-31.917-105.396-31.917-160.459c0-55.063 10.846-109.588 31.917-160.46s51.958-97.094 90.893-136.031c38.936-38.934 85.16-69.821 136.031-90.892s105.396-31.916 160.46-31.916c55.063 0 109.588 10.846 160.459 31.916s97.096 51.958 136.031 90.892c38.937 38.936 69.824 85.16 90.894 136.031s31.916 105.397 31.916 160.46c0 55.063-10.846 109.588-31.916 160.459s-51.958 97.096-90.894 136.031c-38.935 38.936-85.158 69.822-136.031 90.893s-105.396 31.917-160.459 31.917zM699.99 584.251c18.101-18.101 18.101-47.446 0-65.548l-206.956-206.956c-18.101-18.101-47.446-18.101-65.548 0l-103.477 103.478c-18.102 18.102-18.102 47.448 0 65.548s47.446 18.101 65.547 0l70.704-70.704 174.181 174.181c18.101 18.101 47.448 18.101 65.548 0z" />
<glyph unicode="&#xe92d;" glyph-name="incative" data-tags="incative" d="M13.576 946.424c18.101 18.101 47.447 18.101 65.547 0l703.887-703.886c2.715-2.156 5.219-4.642 7.446-7.446l219.966-219.974c18.104-18.094 18.104-47.444 0-65.547-18.094-18.094-47.444-18.094-65.547 0l-198.654 198.66c-72.092-37.864-152.565-57.535-234.372-57.015-207.306 0.056-375.553 116.786-505.243 332.934-8.807 14.677-8.807 33.016 0 47.694 56.341 93.901 119.973 169.304 191.491 224.512l-184.52 184.52c-18.101 18.101-18.101 47.447 0 65.548zM264.289 630.162c-58.191-42.695-112.845-102.919-163.44-182.167 115.602-181.13 252.797-264.083 411.151-264.083h0.305c56.804-0.374 112.817 11.212 164.482 33.751l-96.823 96.823c-20.86-10.622-44.118-16.31-67.964-16.315-39.737-0.006-77.849 15.772-105.953 43.866s-43.895 66.201-43.903 105.938c-0.004 23.863 5.684 47.14 16.314 68.016l-114.168 114.17zM455.577 438.873c1.905-11.771 7.464-22.737 16.007-31.276 8.537-8.534 19.497-14.088 31.262-15.993l-47.269 47.269zM511.881 712.081c-28.494 0.074-56.921-2.739-84.849-8.393-25.089-5.078-49.545 11.143-54.625 36.233s11.143 49.545 36.233 54.624c34.040 6.891 68.69 10.32 103.421 10.235 207.348-0.023 375.628-116.756 505.332-332.937 8.807-14.677 8.807-33.016 0-47.694-35.893-59.831-74.752-112.128-116.672-156.482-17.585-18.602-46.924-19.43-65.529-1.845-18.6 17.583-19.426 46.919-1.845 65.523 31.212 33.016 61.191 71.84 89.807 116.655-4.886 8.131 4.959-7.768 0 0-4.876-8.128 4.959 7.768 0 0-115.604 181.129-252.801 264.082-411.154 264.082h-0.119z" />
<glyph unicode="&#xe92e;" glyph-name="priority-support" data-tags="priority-support" d="M430.536-40.833h-265.51c-21.927 0-41.947 3.813-59.109 10.963-52.911 22.881-81.512 53.388-95.812 75.316-14.301 21.45-13.346 50.051 2.383 71.501 60.539 80.082 192.578 127.75 285.53 127.75s224.993-47.668 285.055-127.75c15.73-20.974 17.16-50.051 2.86-71.501-14.301-21.927-42.901-52.434-95.812-75.316-17.161-7.627-37.182-10.963-59.109-10.963h-0.477zM73.504 79.29c9.533-11.916 27.648-29.078 60.539-43.377 8.104-3.337 18.59-5.243 30.984-5.243h265.51c12.394 0 22.881 1.907 30.984 5.243 32.891 14.301 51.006 31.461 60.062 43.377-46.715 55.771-153.491 94.383-224.038 94.383s-177.324-38.611-224.038-94.383zM297.543 289.982c-92.953 0-168.267 75.316-168.267 167.791s75.316 167.791 168.267 167.791c92.953 0 168.267-75.316 168.267-167.791s-75.316-167.791-168.267-167.791zM297.543 554.539c-53.388 0-96.766-43.377-96.766-96.29s43.377-96.289 96.766-96.289c53.388 0 96.766 43.377 96.766 96.289s-43.377 96.29-96.766 96.29zM590.7 388.655c-11.441 0-22.881 0.953-34.321 3.337-12.394 2.383-22.881 10.963-27.17 22.881s-1.907 25.264 5.72 34.797c9.057 11.441 15.73 25.264 18.59 40.041-51.005 51.481-77.699 115.832-77.699 183.521 0 145.387 122.984 263.602 274.090 263.602s274.090-118.216 274.090-263.602c0-145.387-122.984-263.603-274.090-263.603-17.637 0-35.274 1.43-52.911 4.766-3.337 0.477-5.72 0.953-8.104 1.43-2.383-1.43-5.243-2.86-8.58-4.766-27.648-14.777-58.631-22.404-89.615-22.404zM750.387 864.856c-111.543 0-202.588-86.279-202.588-192.101 0-49.098 19.544-95.336 54.342-131.087 18.115-18.59 26.217-42.424 21.927-65.781-0.953-4.291-1.907-8.104-2.86-12.394 9.057 2.383 17.637 5.72 25.74 10.011 13.824 7.627 21.45 11.441 31.461 12.871s18.115 0 31.937-2.86c12.871-2.383 26.217-3.813 39.564-3.813 111.543 0 202.588 86.279 202.588 192.101s-91.045 192.101-202.588 192.101l0.477 0.953zM821.889 626.517c-19.544 0-35.751 16.207-35.751 35.751s15.73 35.751 35.751 35.751c19.544 0 35.751-16.207 35.751-35.751s-16.207-35.751-35.751-35.751zM678.885 626.517c-19.544 0-35.751 16.207-35.751 35.751s15.73 35.751 35.751 35.751c19.544 0 35.751-16.207 35.751-35.751s-16.207-35.751-35.751-35.751z" />
<glyph unicode="&#xe92f;" glyph-name="security-update" data-tags="security-update" d="M485.906 950.113c14.898 13.183 37.29 13.183 52.192 0 114.992-101.739 265.080-154.712 418.46-147.692 18.128 0.83 34.469-10.83 39.589-28.236 25.306-86.092 33.051-176.393 22.769-265.538s-38.377-175.315-82.613-253.385c-44.243-78.071-103.723-146.453-174.915-201.082s-152.639-94.387-239.501-116.92c-6.485-1.68-13.291-1.68-19.776 0-86.862 22.533-168.305 62.291-239.496 116.92s-130.675 123.012-174.915 201.082c-44.24 78.071-72.336 164.239-82.617 253.385s-2.537 179.445 22.772 265.538c5.116 17.407 21.462 29.066 39.587 28.236 153.38-7.019 303.467 45.953 418.463 147.692zM95.714 723.033c-16.087-67.129-20.304-136.636-12.378-205.366 9.071-78.654 33.861-154.687 72.897-223.573s91.52-129.224 154.336-177.425c60.107-46.122 128.496-80.234 201.432-100.505 72.935 20.27 141.328 54.383 201.434 100.505 62.816 48.202 115.302 108.539 154.335 177.425 39.038 68.886 63.829 144.92 72.899 223.573 7.924 68.73 3.707 138.238-12.378 205.366-151.295 0.281-298.058 51.823-416.291 146.153-118.229-94.33-264.994-145.872-416.287-146.153zM447.031 565.493c17.234 17.233 40.608 26.916 64.98 26.916s47.745-9.682 64.98-26.916c17.234-17.237 26.918-40.611 26.918-64.981s-9.684-47.745-26.918-64.98c-17.234-17.234-40.608-26.918-64.98-26.918s-47.745 9.684-64.98 26.918c-17.234 17.234-26.918 40.608-26.918 64.98s9.684 47.745 26.918 64.981zM512.011 513.64c-3.482 0-6.821-1.381-9.284-3.844s-3.844-5.803-3.844-9.284c0-3.482 1.381-6.821 3.844-9.284s5.803-3.844 9.284-3.844c3.482 0 6.821 1.381 9.284 3.844s3.844 5.803 3.844 9.284c0 3.482-1.381 6.821-3.844 9.284s-5.803 3.844-9.284 3.844zM512.011 487.384c21.751 0 39.385-17.633 39.385-39.385v-131.283c0-21.751-17.633-39.385-39.385-39.385s-39.385 17.633-39.385 39.385v131.283c0 21.751 17.633 39.385 39.385 39.385z" />
<glyph unicode="&#xe930;" glyph-name="search" data-tags="search" d="M279.634 927.179c52.31 21.667 108.377 32.82 164.997 32.82s112.686-11.153 164.997-32.82c52.31-21.667 99.841-53.426 139.875-93.463 40.040-40.037 71.795-87.567 93.467-139.878 21.665-52.31 32.818-108.377 32.818-164.997s-11.153-112.686-32.818-164.997c-15.069-36.376-35.017-70.441-59.234-101.279l212.956-236.619c19.913-22.125 18.116-56.201-4.009-76.114s-56.201-18.116-76.114 4.009l-209.571 232.861c-29.801-22.859-62.525-41.765-97.369-56.201-52.31-21.665-108.377-32.818-164.997-32.818s-112.686 11.153-164.997 32.818c-52.31 21.673-99.841 53.427-139.878 93.467-40.037 40.033-71.796 87.564-93.463 139.875s-32.82 108.377-32.82 164.997c0 56.62 11.153 112.686 32.82 164.997s53.426 99.841 93.463 139.878c40.037 40.037 87.567 71.796 139.878 93.463zM444.631 852.209c-42.465 0-84.515-8.364-123.748-24.615s-74.881-40.070-104.908-70.098c-30.027-30.027-53.846-65.676-70.098-104.908s-24.615-81.282-24.615-123.748c0-42.465 8.364-84.515 24.615-123.748s40.070-74.881 70.098-104.908c30.027-30.024 65.676-53.846 104.908-70.1 39.234-16.247 81.282-24.612 123.748-24.612s84.515 8.364 123.748 24.612c39.233 16.255 74.881 40.076 104.908 70.1 30.027 30.027 53.846 65.676 70.1 104.908 16.247 39.234 24.612 81.282 24.612 123.748s-8.364 84.515-24.612 123.748c-16.255 39.233-40.074 74.881-70.1 104.908s-65.676 53.846-104.908 70.098c-39.234 16.251-81.282 24.615-123.748 24.615z" />
<glyph unicode="&#xe931;" glyph-name="star-lite" data-tags="star-lite" horiz-adv-x="1073" d="M535.698 960c18.564 0 35.513-10.537 43.73-27.182l139.127-281.909 311.077-45.083c18.378-2.663 33.646-15.535 39.38-33.197 5.739-17.662 0.941-37.049-12.366-50.002l-225.421-219.425 53.15-309.853c3.14-18.305-4.389-36.801-19.417-47.709s-34.948-12.332-51.376-3.677l-277.567 146.266-278.241-146.286c-16.429-8.641-36.337-7.202-51.354 3.711-15.016 10.908-22.536 29.399-19.398 47.694l53.152 309.853-225.424 219.425c-13.307 12.953-18.101 32.34-12.366 50.002s21.006 30.534 39.384 33.197l311.075 45.083 139.129 281.909c8.212 16.644 25.166 27.182 43.725 27.182zM535.698 801.057l-106.751-216.307c-7.106-14.398-20.843-24.375-36.733-26.678l-238.544-34.572 172.915-168.314c11.509-11.205 16.763-27.355 14.048-43.188l-40.784-237.753 213.503 112.25c14.219 7.475 31.208 7.47 45.422-0.020l212.758-112.113-40.765 237.636c-2.716 15.833 2.54 31.983 14.048 43.188l172.915 168.314-238.543 34.572c-15.892 2.303-29.628 12.28-36.732 26.678l-106.754 216.307z" />
<glyph unicode="&#xe932;" glyph-name="figma-to-elementor" data-tags="figma-to-elementor" d="M757.805 450.746c-0.702 28.299-12.254 55.293-32.321 75.359-20.712 20.711-48.802 32.351-78.094 32.351s-57.388-11.638-78.102-32.351-32.351-48.809-32.351-78.102l0.039-2.742c0.702-28.298 12.248-55.286 32.312-75.351 20.714-20.714 48.809-32.352 78.102-32.352s57.381 11.639 78.094 32.352c20.713 20.713 32.351 48.801 32.352 78.094l-0.031 2.742zM807.672 444.027c-1.016-41.080-17.786-80.262-46.914-109.39-30.067-30.067-70.846-46.961-113.367-46.961s-83.307 16.893-113.374 46.961c-29.127 29.128-45.888 68.311-46.906 109.39l-0.047 3.977c0 42.522 16.886 83.307 46.954 113.375s70.853 46.953 113.374 46.953c42.521 0 83.301-16.887 113.367-46.953 30.068-30.068 46.962-70.854 46.962-113.375l-0.048-3.977zM487.058 287.676h-110.446c-29.293 0-57.388-11.638-78.102-32.352s-32.351-48.809-32.351-78.102c0.001-29.294 11.64-57.382 32.351-78.094 20.714-20.712 48.809-32.352 78.102-32.352s57.382 11.64 78.094 32.352c20.713 20.712 32.35 48.8 32.351 78.094v110.454zM536.941 177.222c-0.001-42.518-16.894-83.302-46.962-113.366s-70.846-46.96-113.367-46.96c-42.522 0-83.307 16.888-113.374 46.96-30.066 30.064-46.953 70.848-46.954 113.366 0 42.522 16.886 83.308 46.954 113.375s70.853 46.953 113.374 46.953h160.329v-160.328zM757.836 718.778c0 29.293-11.638 57.388-32.352 78.102-20.712 20.711-48.802 32.351-78.094 32.351h-110.453v-220.898h110.453c29.293 0.001 57.381 11.638 78.094 32.351s32.351 48.802 32.352 78.094zM807.72 718.778c0-42.522-16.895-83.3-46.962-113.367s-70.846-46.961-113.367-46.961h-160.328v320.656h160.328c42.521-0.001 83.301-16.887 113.367-46.954 30.068-30.067 46.962-70.853 46.962-113.374zM536.942 879.106v-320.656h-160.328c-42.522 0-83.308 16.893-113.375 46.961-29.127 29.128-45.888 68.311-46.906 109.39l-0.047 3.977c0 42.522 16.886 83.307 46.954 113.374s70.853 46.954 113.375 46.954h160.328zM266.199 716.035c0.702-28.298 12.248-55.286 32.313-75.352 20.713-20.713 48.809-32.351 78.102-32.351h110.445v220.898h-110.445c-29.294 0-57.389-11.638-78.102-32.351s-32.352-48.809-32.352-78.102l0.039-2.742zM536.941 608.332v-320.656h-160.329c-42.522 0-83.307 16.893-113.374 46.961-29.127 29.128-45.888 68.311-46.906 109.39l-0.047 3.977c0 42.522 16.886 83.307 46.954 113.375s70.853 46.953 113.374 46.953h160.329zM266.198 445.262c0.702-28.298 12.248-55.286 32.312-75.351 20.714-20.714 48.809-32.352 78.102-32.352h110.446v220.898h-110.446c-29.293 0-57.388-11.638-78.102-32.351s-32.351-48.809-32.351-78.102l0.039-2.742z" />
</font>
</defs>
</svg>
